osu file format v14

[General]
AudioFilename: OP.mp3
AudioLeadIn: 1500
PreviewTime: 69699
Countdown: 0
SampleSet: Soft
StackLeniency: 0.7
Mode: 0
LetterboxInBreaks: 0
WidescreenStoryboard: 0

[Editor]
Bookmarks: 13767
DistanceSpacing: 1.2
BeatDivisor: 4
GridSize: 4
TimelineZoom: 2.899999

[Metadata]
Title:Amadeus
TitleUnicode:アマデウス
Artist:Itou Kanako
ArtistUnicode:いとうかなこ
Creator:ZZHBOY
Version:Hard
Source:STEINS;GATE 0
Tags:
BeatmapID:791967
BeatmapSetID:359472

[Difficulty]
HPDrainRate:5
CircleSize:4
OverallDifficulty:6
ApproachRate:8
SliderMultiplier:1.6
SliderTickRate:1

[Events]
//Background and Video events
0,0,"BG.jpg",0,0
//Break Periods
//Storyboard Layer 0 (Background)
//Storyboard Layer 1 (Fail)
//Storyboard Layer 2 (Pass)
//Storyboard Layer 3 (Foreground)
//Storyboard Sound Samples

[TimingPoints]
208,338.983050847458,4,2,1,50,1,0
208,-133.333333333333,4,2,1,50,0,0
13767,-100,4,2,1,60,0,0
25970,-100,4,2,1,50,0,0
36818,-100,4,2,1,60,0,0
70546,-100,4,2,1,80,0,1
81224,-100,4,2,1,70,0,0
81394,-100,4,2,1,80,0,1
92241,-100,4,2,1,70,0,0

[Colours]
Combo1 : 255,213,85
Combo2 : 160,154,190
Combo3 : 140,192,255
Combo4 : 254,180,237

[HitObjects]
108,228,13767,5,0,1:0:0:0:
92,132,13936,1,0,0:0:0:0:
180,172,14106,2,0,B|214:177|246:168|273:152,1,80,8|0,1:0|0:0,0:0:0:0:
315,82,14445,2,0,L|303:30,7,40,0|0|0|0|0|0|0|0,1:0|1:0|1:0|1:0|1:0|1:0|1:0|1:0,0:0:0:0:
332,84,15123,6,0,B|394:113|462:102|511:65,1,160,4|8,1:0|0:0,0:0:0:0:
492,176,15631,1,0,0:0:0:0:
396,180,15801,2,0,B|396:230|412:276,1,80,0|0,1:0|0:0,0:0:0:0:
396,356,16140,1,8,0:0:0:0:
320,296,16309,6,0,B|273:292|228:304,1,80,0|0,0:0|0:0,0:0:0:0:
148,324,16648,1,0,0:0:0:0:
176,232,16818,1,8,0:0:0:0:
140,144,16987,2,0,B|149:113|147:82|136:55,1,80,0|0,0:0|1:0,0:0:0:0:
56,20,17326,1,0,1:0:0:0:
20,108,17496,2,0,L|24:192,1,80,8|0,0:0|0:0,0:0:0:0:
80,264,17835,6,0,B|174:274|264:260,1,160,0|8,1:0|0:0,0:0:0:0:
272,172,18343,1,0,0:0:0:0:
332,248,18513,2,0,B|322:297|336:344,1,80,,,0:0:0:0:
412,380,18852,1,8,0:0:0:0:
484,316,19021,6,0,B|494:220|480:128,1,160,0|0,1:0|1:0,0:0:0:0:
296,44,19699,2,0,B|284:132|304:216,1,160,0|0,1:0|1:0,1:0:0:0:
360,280,20208,1,0,1:0:0:0:
276,328,20377,1,0,1:0:0:0:
188,288,20546,6,0,B|124:264|57:268|-1:292,1,160,0|8,1:0|0:0,0:0:0:0:
4,188,21055,1,0,0:0:0:0:
64,112,21224,2,0,L|156:125,1,80,0|0,1:0|0:0,0:0:0:0:
228,79,21563,1,8,0:0:0:0:
220,176,21733,1,0,0:0:0:0:
248,268,21902,1,0,1:0:0:0:
324,324,22072,6,0,B|386:305|450:308|506:329,1,160,0|0,1:0|1:0,0:0:0:0:
460,128,22750,1,0,0:0:0:0:
400,56,22919,2,0,B|357:50|316:60,1,80,8|0,0:0|0:0,0:0:0:0:
244,116,23258,5,0,1:0:0:0:
296,196,23428,1,0,0:0:0:0:
200,200,23597,2,0,B|193:232|195:264|204:294,1,80,8|0,0:0|0:0,0:0:0:0:
284,328,23936,2,0,B|334:327|380:312,2,80,0|8|8,0:0|0:0|0:0,0:0:0:0:
204,380,24445,5,4,1:0:0:0:
128,68,25970,5,0,1:0:0:0:
208,120,26140,2,0,B|218:166|208:212,1,80,0|0,0:0|0:0,0:0:0:0:
128,252,26479,1,0,1:0:0:0:
56,188,26648,1,0,0:0:0:0:
188,76,27326,6,0,B|245:84|300:76,1,80,2|0,0:0|0:0,0:0:0:0:
276,84,27580,1,0,0:0:0:0:
284,88,27665,2,0,B|339:94|393:92,1,80,0|0,0:0|0:0,0:0:0:0:
440,152,28004,2,0,B|445:201|432:248,1,80,0|0,3:0|0:0,0:0:0:0:
344,264,28343,2,0,B|334:303|339:343,1,80,0|0,3:0|0:0,0:0:0:0:
436,360,28682,5,0,1:0:0:0:
184,224,29191,1,0,0:0:0:0:
116,292,29360,2,0,B|109:334|112:376,2,80,0|0|0,0:3|0:0|0:0,0:0:0:0:
308,324,30038,6,0,B|346:328|382:322|414:307,2,80,0|0|0,0:0|3:0|1:0,0:0:0:0:
280,232,30546,1,0,0:0:0:0:
280,232,30631,1,0,0:0:0:0:
280,232,30716,2,0,B|291:178|288:124,1,80,0|0,3:0|0:0,0:0:0:0:
200,120,31055,2,0,B|200:79|208:40,1,80,0|0,3:0|0:0,0:0:0:0:
304,32,31394,5,0,3:0:0:0:
492,248,31902,1,8,3:0:0:0:
424,316,32072,2,0,B|386:321|350:308|324:284,1,80,0|0,0:0|0:0,0:0:0:0:
276,236,32411,1,0,0:0:0:0:
184,264,32580,1,0,0:0:0:0:
96,224,32750,6,0,B|76:164|81:103|104:51,1,160,0|0,3:0|0:0,0:0:0:0:
188,36,33258,1,0,0:0:0:0:
272,84,33428,2,0,B|322:85|368:68,1,80,0|0,3:0|0:0,0:0:0:0:
420,8,33767,2,0,B|436:97|420:184,1,160,0|4,3:0|3:0,0:0:0:0:
156,272,34614,5,8,3:0:0:0:
84,208,34784,2,0,B|74:174|78:140|92:112,1,80,0|0,0:0|0:0,0:0:0:0:
180,104,35123,2,0,B|190:138|186:172|172:200,1,80,0|0,0:0|0:0,0:0:0:0:
156,272,35462,5,2,0:0:0:0:
248,296,35631,2,0,B|276:303|304:300|329:289,1,80,0|8,3:0|3:0,3:0:0:0:
327,193,35970,1,0,0:0:0:0:
329,96,36140,2,0,B|369:91|408:98,1,80,0|0,1:0|0:0,0:0:0:0:
478,164,36479,1,0,1:0:0:0:
461,258,36648,1,0,0:0:0:0:
435,350,36818,6,0,B|376:371|316:372|261:357,1,160,0|8,1:0|0:0,0:0:0:0:
245,270,37326,1,0,3:0:0:0:
284,180,37496,2,0,B|293:131|284:84,2,80,0|8|8,0:0|3:0|0:0,0:0:0:0:
92,188,38174,6,0,L|92:72,1,80,0|0,1:0|3:0,0:0:0:0:
96,100,38428,1,0,3:0:0:0:
101,93,38513,2,0,B|145:84|189:93,1,80,8|8,0:0|3:0,0:0:0:0:
236,169,38852,1,0,3:0:0:0:
190,253,39021,2,0,B|190:301|194:347,2,80,0|8|0,3:0|0:0|3:0,0:0:0:0:
286,249,39530,6,0,B|370:260|451:242,1,160,0|8,1:0|0:0,0:0:0:0:
489,157,40038,1,0,3:0:0:0:
489,157,40123,1,0,3:0:0:0:
489,157,40208,2,0,B|497:118|493:80|480:47,1,80,0|0,3:0|3:0,0:0:0:0:
410,23,40546,1,0,1:0:0:0:
224,71,40885,5,0,1:0:0:0:
280,148,41055,1,0,1:0:0:0:
218,221,41224,2,0,B|212:258|224:292|247:317,1,80,8|0,0:0|1:0,0:0:0:0:
325,322,41563,1,0,1:0:0:0:
414,285,41733,2,0,L|494:282,2,80,0|8|0,1:0|0:0|0:0,0:0:0:0:
325,322,42241,6,0,B|234:331|145:328,1,160,0|8,1:0|0:0,0:0:0:0:
77,288,42750,1,0,0:0:0:0:
136,213,42919,2,0,B|138:164|129:118,1,80,0|0,3:0|3:0,0:0:0:0:
174,47,43258,2,0,B|221:38|268:45,1,80,8|0,0:0|0:0,0:0:0:0:
341,82,43597,6,0,B|344:136|337:187,1,80,0|0,1:0|3:0,0:0:0:0:
333,166,43852,1,0,3:0:0:0:
327,171,43936,2,0,B|318:221|333:270,1,80,8|0,0:0|3:0,0:0:0:0:
354,343,44275,2,0,L|354:383,2,40,0|0|0,1:0|0:0|1:0,0:0:0:0:
422,275,44614,2,0,B|449:263|477:260|503:264,1,80,8|0,0:0|0:0,0:0:0:0:
460,176,44953,6,0,B|448:124|457:72,1,80,0|0,1:0|0:0,0:0:0:0:
456,88,45208,1,0,3:0:0:0:
460,81,45292,2,0,B|412:82|365:79,1,80,8|0,0:0|1:0,0:0:0:0:
294,35,45631,1,0,3:0:0:0:
260,124,45801,1,0,3:0:0:0:
165,137,45970,2,0,B|134:146|102:139|78:121,1,80,8|0,0:0|0:0,0:0:0:0:
77,31,46309,5,0,1:0:0:0:
0,93,46479,1,0,0:0:0:0:
13,187,46648,2,0,B|18:238|8:286,1,80,8|0,0:0|3:0,0:0:0:0:
88,324,46987,1,0,3:0:0:0:
182,307,47157,2,0,B|219:303|254:309|284:324,2,80,0|8|0,3:0|0:0|0:0,0:0:0:0:
119,234,47665,5,2,1:0:0:0:
142,140,47835,2,0,B|203:121|265:119|322:133,1,160,0|0,1:0|0:0,0:0:0:0:
367,196,48343,2,0,B|364:247|357:296,1,80,8|0,0:0|0:0,0:0:0:0:
410,357,48682,1,0,3:0:0:0:
486,299,48852,6,0,B|510:210|495:121,1,160,0|0,1:0|0:0,0:0:0:0:
455,53,49360,1,0,1:0:0:0:
264,77,49699,2,0,B|259:172|277:262,1,160,8|0,0:0|1:0,0:0:0:0:
105,332,50377,5,0,1:0:0:0:
105,332,50546,1,0,0:0:0:0:
66,143,50885,1,0,0:0:0:0:
146,90,51055,2,0,B|238:77|326:100,1,160,8|0,0:0|0:0,0:0:0:0:
368,167,51563,1,0,0:0:0:0:
400,257,51733,6,0,B|400:295|387:329|366:357,1,80,0|0,0:0|0:0,0:0:0:0:
285,345,52072,2,0,L|190:330,1,80,0|0,1:0|0:0,0:0:0:0:
132,269,52411,1,8,0:0:0:0:
141,173,52580,1,8,0:0:0:0:
232,134,52750,1,0,1:0:0:0:
218,229,52919,1,0,3:0:0:0:
132,269,53089,6,0,L|22:268,1,80,0|0,1:0|0:0,0:0:0:0:
108,84,53597,1,0,0:0:0:0:
194,41,53767,2,0,B|283:33|368:45,1,160,8|0,0:0|0:0,0:0:0:0:
424,108,54275,6,0,B|439:234|416:355,1,240,0|0,1:0|0:0,0:0:0:0:
225,335,55123,2,0,B|209:245|224:157,1,160,8|0,0:0|0:0,0:0:0:0:
57,75,55801,6,0,B|52:125|54:174,1,80,0|0,1:0|1:0,0:0:0:0:
85,344,56309,1,0,0:0:0:0:
153,276,56479,2,0,B|219:264|284:274|340:301,1,160,8|0,0:0|0:0,0:0:0:0:
388,345,56987,6,0,B|380:219|393:98,1,240,0|0,1:0|1:0,0:0:0:0:
201,77,57835,1,8,0:0:0:0:
121,130,58004,1,0,0:0:0:0:
205,176,58174,2,0,B|209:223|202:268,1,80,8|0,0:0|0:0,0:0:0:0:
292,293,58513,6,0,B|314:197|295:102,1,160,4|0,1:0|0:0,0:0:0:0:
336,44,59021,2,0,B|420:40|499:58,1,160,0|0,1:0|0:0,0:0:0:0:
493,153,59530,1,0,1:0:0:0:
385,312,59869,5,0,1:0:0:0:
292,293,60038,2,0,B|279:259|279:224|289:192,1,80,0|0,1:0|3:0,0:0:0:0:
241,128,60377,1,0,1:0:0:0:
174,58,60546,2,0,B|131:75|85:72,1,80,0|0,0:0|0:0,0:0:0:0:
32,144,60885,2,0,B|36:192|32:238,1,80,0|0,1:0|0:0,0:0:0:0:
60,316,61224,6,0,B|143:337|226:322,1,160,0|8,3:0|0:0,0:0:0:0:
300,271,61733,1,0,0:0:0:0:
384,315,61902,2,0,B|434:315|481:302,1,80,0|0,1:0|0:0,0:0:0:0:
497,216,62241,2,0,B|500:183|494:151|481:122,1,80,0|0,1:0|0:0,0:0:0:0:
416,71,62580,5,8,0:0:0:0:
344,135,62750,1,0,1:0:0:0:
267,77,62919,2,0,B|218:87|170:88,1,80,8|0,0:0|3:0,0:0:0:0:
111,145,63258,1,0,3:0:0:0:
160,227,63428,1,0,1:0:0:0:
253,207,63597,2,0,B|289:205|322:215|349:233,1,80,8|0,0:0|3:0,0:0:0:0:
367,311,63936,6,0,B|357:215|379:124,1,160,0|8,1:0|0:0,0:0:0:0:
430,73,64445,2,0,B|335:69|247:46,1,160,0|0,1:0|0:0,0:0:0:0:
179,22,64953,1,8,0:0:0:0:
168,117,65123,1,0,0:0:0:0:
90,172,65292,6,0,B|79:256|98:337,1,160,0|8,1:0|0:0,0:0:0:0:
187,364,65801,2,0,B|276:370|361:351,1,160,0|0,1:0|1:0,0:0:0:0:
378,263,66309,1,8,0:0:0:0:
437,338,66479,1,0,0:0:0:0:
468,247,66648,6,0,B|473:195|472:143,1,80,0|0,1:0|0:0,0:0:0:0:
383,130,66987,2,0,B|373:83|355:41,1,80,8|0,0:0|0:0,0:0:0:0:
287,117,67326,1,0,1:0:0:0:
190,120,67496,1,0,0:0:0:0:
96,142,67665,1,8,0:0:0:0:
12,190,67835,6,0,B|15:229|29:265|50:294,1,80,0|0,0:0|1:0,0:0:0:0:
120,306,68174,1,8,0:0:0:0:
214,291,68343,2,0,B|211:252|197:216|176:187,1,80,8|0,0:0|3:0,0:0:0:0:
256,192,68682,12,0,69699,0:0:0:0:
261,129,70038,6,0,L|259:230,1,80,2|2,1:0|1:0,0:0:0:0:
433,289,70546,6,0,B|438:190|436:93,1,160,4|0,1:0|0:0,0:0:0:0:
397,40,71055,1,8,0:0:0:0:
301,33,71224,1,0,1:0:0:0:
251,115,71394,2,0,L|249:216,2,80,0|0|8,1:0|1:0|0:0,0:0:0:0:
251,115,71902,6,0,B|168:124|88:108,1,160,0|0,1:0|0:0,0:0:0:0:
9,160,72411,1,8,0:0:0:0:
87,214,72580,2,0,B|81:298|87:379,1,160,0|0,1:0|1:0,0:0:0:0:
177,326,73089,1,8,0:0:0:0:
177,326,73258,6,0,B|264:335|346:304,1,160,0|0,1:0|0:0,0:0:0:0:
322,211,73767,1,8,0:0:0:0:
345,118,73936,1,0,0:0:0:0:
441,115,74106,2,0,B|457:149|460:185|452:219,1,80,0|0,1:0|1:0,0:0:0:0:
400,271,74445,1,8,0:0:0:0:
322,211,74614,6,0,B|232:208|146:221,1,160,0|0,1:0|1:0,0:0:0:0:
71,186,75123,1,8,0:0:0:0:
111,99,75292,2,0,B|193:78|275:73,1,160,0|0,1:0|1:0,0:0:0:0:
276,76,75716,1,0,0:0:0:0:
283,79,75801,2,0,B|335:78|383:60,1,80,8|0,0:0|0:0,0:0:0:0:
439,9,76140,5,0,3:0:0:0:
491,88,76309,1,0,0:0:0:0:
491,88,76394,1,0,0:0:0:0:
491,88,76479,2,0,B|479:138|491:188,1,80,8|0,0:0|0:0,0:0:0:0:
503,262,76818,1,0,1:0:0:0:
455,344,76987,2,0,B|366:351|281:337,1,160,0|0,1:0|0:0,0:0:0:0:
290,332,77411,1,0,0:0:0:0:
284,325,77496,6,0,B|233:317|184:325,1,80,0|0,1:0|0:0,0:0:0:0:
119,368,77835,1,8,0:0:0:0:
42,309,78004,2,0,B|24:220|43:132,1,160,0|0,0:0|0:0,0:0:0:0:
117,92,78513,1,8,0:0:0:0:
180,163,78682,1,0,0:0:0:0:
257,106,78852,6,0,L|356:107,1,80,4|0,1:0|1:0,0:0:0:0:
343,111,79106,1,0,1:0:0:0:
349,115,79191,2,0,L|448:116,1,80,0|0,1:0|1:0,0:0:0:0:
435,120,79445,1,0,1:0:0:0:
441,124,79530,2,0,B|448:165|443:206|429:242,1,80,0|0,1:0|1:0,0:0:0:0:
353,240,79869,1,0,1:0:0:0:
374,333,80038,1,0,1:0:0:0:
201,248,80377,5,0,1:0:0:0:
122,302,80546,2,0,B|81:312|42:304|9:286,1,80,0|0,1:0|0:0,0:0:0:0:
28,204,80885,1,8,0:0:0:0:
122,186,81055,1,8,0:0:0:0:
201,248,81224,1,2,0:0:0:0:
201,248,81309,1,2,0:0:0:0:
201,248,81394,6,0,B|291:265|379:248,1,160,4|0,1:0|0:0,0:0:0:0:
434,189,81902,1,8,0:0:0:0:
366,120,82072,1,0,1:0:0:0:
457,93,82241,2,0,B|463:63|456:34|442:11,1,80,0|0,1:0|3:0,0:0:0:0:
348,24,82580,1,8,0:0:0:0:
275,87,82750,6,0,B|216:94|160:73,1,80,0|0,1:0|0:0,0:0:0:0:
116,28,83089,2,0,L|113:126,1,80,8|8,0:0|0:0,0:0:0:0:
42,172,83428,1,0,1:0:0:0:
42,172,83513,1,0,0:0:0:0:
42,172,83597,2,0,B|37:222|42:271,1,80,0|8,0:0|0:0,0:0:0:0:
114,313,83936,1,8,0:0:0:0:
183,246,84106,6,0,B|275:241|364:254,1,160,4|0,1:0|0:0,0:0:0:0:
367,344,84614,2,0,B|404:353|442:351|476:342,1,80,8|0,0:0|3:0,0:0:0:0:
499,267,84953,1,0,1:0:0:0:
432,197,85123,2,0,B|423:167|423:136|430:108,1,80,0|8,1:0|0:0,0:0:0:0:
486,41,85462,6,0,B|394:51|306:38,1,160,4|0,1:0|0:0,0:0:0:0:
234,11,85970,1,8,0:0:0:0:
152,62,86140,1,0,1:0:0:0:
152,62,86224,1,0,0:0:0:0:
152,62,86309,2,0,B|146:99|151:135|166:166,1,80,0|0,1:0|1:0,0:0:0:0:
241,187,86648,2,0,B|250:214|250:242|245:267,1,80,8|0,0:0|0:0,0:0:0:0:
176,332,86987,5,4,1:0:0:0:
90,288,87157,2,0,B|83:244|89:201,1,80,0|0,0:0|1:0,0:0:0:0:
156,141,87496,2,0,B|251:138|345:142,1,160,8|0,0:0|1:0,0:0:0:0:
391,201,88004,1,8,0:0:0:0:
314,259,88174,1,0,3:0:0:0:
314,259,88258,1,0,3:0:0:0:
314,259,88343,6,0,B|311:307|330:351,1,80,0|0,1:0|0:0,0:0:0:0:
418,362,88682,1,8,0:0:0:0:
488,296,88852,2,0,B|491:201|479:109,1,160,0|0,3:0|0:0,0:0:0:0:
418,63,89360,1,8,0:0:0:0:
357,137,89530,1,0,0:0:0:0:
321,48,89699,6,0,B|267:47|218:68,1,80,4|0,1:0|1:0,0:0:0:0:
236,64,89953,1,0,1:0:0:0:
230,70,90038,2,0,L|241:177,1,80,0|0,1:0|1:0,0:0:0:0:
231,154,90292,1,0,1:0:0:0:
225,159,90377,2,0,L|226:246,1,80,0|0,1:0|1:0,0:0:0:0:
209,333,90716,1,8,0:0:0:0:
131,276,90885,1,8,0:0:0:0:
320,305,91224,5,0,1:0:0:0:
416,300,91394,2,0,B|426:250|417:201,1,80,8|8,0:0|0:0,0:0:0:0:
394,127,91733,2,0,L|305:133,1,80,0|0,3:0|3:0,0:0:0:0:
135,61,92241,6,0,B|231:33|328:45,1,160,4|0,1:0|0:0,0:0:0:0:
389,32,92750,1,8,0:0:0:0:
394,127,92919,1,0,0:0:0:0:
319,187,93089,2,0,B|312:236|327:282,1,80,0|0,1:0|0:0,0:0:0:0:
396,328,93428,1,8,0:0:0:0:
306,361,93597,6,0,B|216:374|131:345,1,160,0|0,0:0|0:0,0:0:0:0:
76,284,94106,1,8,0:0:0:0:
166,252,94275,1,0,0:0:0:0:
90,191,94445,2,0,B|89:146|102:105,1,80,0|0,0:0|0:0,0:0:0:0:
165,41,94784,1,8,0:0:0:0:
235,105,94953,6,0,B|317:115|395:91,1,160,0|0,1:0|0:0,0:0:0:0:
469,151,95462,1,8,0:0:0:0:
384,195,95631,1,0,0:0:0:0:
462,250,95801,2,0,B|461:304|451:357,1,80,0|0,1:0|0:0,0:0:0:0:
363,359,96140,1,8,0:0:0:0:
286,301,96309,6,0,B|200:292|118:308,1,160,0|0,0:0|0:0,0:0:0:0:
44,254,96818,1,8,0:0:0:0:
120,196,96987,1,0,0:0:0:0:
77,109,97157,2,0,B|76:65|95:25,2,80,0|0|8,1:0|1:0|0:0,0:0:0:0:
120,196,97665,6,0,B|216:224|314:204,1,160,2|0,1:0|1:0,0:0:0:0:
350,145,98174,1,8,0:0:0:0:
340,49,98343,1,0,0:0:0:0:
429,83,98513,2,0,B|459:90|489:86|514:73,1,80,0|0,1:0|0:0,0:0:0:0:
485,169,98852,1,8,0:0:0:0:
406,223,99021,6,0,B|409:273|426:318,1,80,0|0,1:0|0:0,0:0:0:0:
343,359,99360,1,0,0:0:0:0:
257,314,99530,2,0,B|207:319|162:340,1,80,8|0,0:0|0:0,0:0:0:0:
90,296,99869,2,0,B|103:259|103:221|94:187,1,80,0|0,1:0|0:0,0:0:0:0:
43,138,100208,2,0,B|38:97|52:59,1,80,8|0,0:0|0:0,0:0:0:0:
146,40,100546,5,0,1:0:0:0:
241,51,100716,1,0,0:0:0:0:
335,63,100885,2,0,B|340:119|334:173,1,80,0|0,1:0|0:0,0:0:0:0:
327,238,101224,5,0,1:0:0:0:
232,227,101394,1,0,0:0:0:0:
138,215,101563,2,0,B|133:159|139:105,1,80,0|0,1:0|0:0,0:0:0:0:
232,131,101902,6,0,L|234:82,2,40,0|0|0,1:0|1:0|1:0,0:0:0:0:
232,227,102241,2,0,L|230:266,2,40,0|0|0,1:0|1:0|1:0,0:0:0:0:
316,181,102580,6,0,L|350:180,8,20,2|2|2|2|2|2|2|2|0,0:0|0:0|0:0|0:0|0:0|0:0|0:0|0:0|1:0,0:0:0:0:
316,181,103089,5,4,1:0:0:0:
